Epic: El mundo secreto |2013|Animacion|BDrip 1080p x264 mkv|DTS(es,cat,en) AC3(es) |Subs| 12GB


Epic / IMDb / (2013) / Chris Wedge

EE. UU.
Aventuras, Fantasía

Produce: Blue Sky Studios, Twentieth Century Fox Animation
Distribuye en España: Twentieth Century Fox

Sinopsis
Una adolescente se ve transportada hacia lo más profundo de un bosque encantado donde tiene lugar una batalla entre las fuerzas del bien y del mal. Deberá unirse a los lugareños para salvar su mundo… y el nuestro.

Código:

General
Complete name                            : Epic el mundo secreto - 1080p by left2.mkv
Format                                   : Matroska
Format version                           : Version 4 / Version 2
File size                                : 11.9 GiB
Duration                                 : 1h 42mn
Overall bit rate                         : 16.7 Mbps
Movie name                               : Epic el mundo secreto - 1080p by left2
Encoded date                             : UTC 2013-09-01 00:52:34
Writing application                      : mkvmerge v6.2.0 ('Promised Land') built on Apr 28 2013 12:22:01
Writing library                          : libebml v1.3.0 + libmatroska v1.4.0
Attachment                               : Yes

Video
ID                                       : 1
Format                                   : AVC
Format/Info                              : Advanced Video Codec
Format profile                           : High@L4.1
Format settings, CABAC                   : Yes
Format settings, ReFrames                : 5 frames
Codec ID                                 : V_MPEG4/ISO/AVC
Duration                                 : 1h 42mn
Bit rate                                 : 12.6 Mbps
Width                                    : 1 920 pixels
Height                                   : 800 pixels
Display aspect ratio                     : 2.40:1
Frame rate mode                          : Constant
Frame rate                               : 23.976 fps
Color space                              : YUV
Chroma subsampling                       : 4:2:0
Bit depth                                : 8 bits
Scan type                                : Progressive
Bits/(Pixel*Frame)                       : 0.343
Stream size                              : 9.05 GiB (76%)
Writing library                          : x264 core 136 r2348+704+51 d1baef6 tMod [8-bit@4:2:0 X86]
Encoding settings                        : cabac=1 / ref=5 / deblock=1:-3:-3 / analyse=0x3:0x113 / me=umh / subme=10 / psy=1 / fade_compensate=0.00 / psy_rd=1.08:0.05 / mixed_ref=1 / me_range=32 / chroma_me=1 / trellis=2 / 8x8dct=1 / cqm=0 / deadzone=21,11 / fast_pskip=0 / chroma_qp_offset=-3 / threads=6 / lookahead_threads=1 / sliced_threads=0 / nr=0 / decimate=0 / interlaced=0 / bluray_compat=0 / constrained_intra=0 / fgo=0 / bframes=8 / b_pyramid=2 / b_adapt=2 / b_bias=0 / direct=3 / weightb=1 / open_gop=0 / weightp=2 / keyint=250 / keyint_min=23 / scenecut=40 / intra_refresh=0 / rc_lookahead=60 / rc=crf / mbtree=0 / crf=16.0000 / qcomp=0.75 / qpmin=0:0:0 / qpmax=69:69:69 / qpstep=4 / vbv_maxrate=50000 / vbv_bufsize=62500 / crf_max=0.0 / nal_hrd=none / ip_ratio=1.30 / pb_ratio=1.20 / aq=3:0.80 / aq-sensitivity=10.00 / aq-factor=1.00:1.00:1.00 / aq2=0 / aq3=0
Language                                 : English
Default                                  : Yes
Forced                                   : No

Audio #1
ID                                       : 2
Format                                   : DTS
Format/Info                              : Digital Theater Systems
Mode                                     : 16
Format settings, Endianness              : Big
Codec ID                                 : A_DTS
Duration                                 : 1h 42mn
Bit rate mode                            : Constant
Bit rate                                 : 768 Kbps
Channel(s)                               : 6 channels
Channel positions                        : Front: L C R, Side: L R, LFE
Sampling rate                            : 48.0 KHz
Bit depth                                : 24 bits
Compression mode                         : Lossy
Stream size                              : 563 MiB (5%)
Title                                    : DTS 5.1 Castellano
Language                                 : Spanish
Default                                  : Yes
Forced                                   : No

Audio #2
ID                                       : 3
Format                                   : AC-3
Format/Info                              : Audio Coding 3
Mode extension                           : CM (complete main)
Format settings, Endianness              : Big
Codec ID                                 : A_AC3
Duration                                 : 1h 42mn
Bit rate mode                            : Constant
Bit rate                                 : 640 Kbps
Channel(s)                               : 6 channels
Channel positions                        : Front: L C R, Side: L R, LFE
Sampling rate                            : 48.0 KHz
Bit depth                                : 16 bits
Compression mode                         : Lossy
Stream size                              : 469 MiB (4%)
Title                                    : AC3 5.1 Castellano [Desde DTS by left2]
Language                                 : Spanish
Default                                  : No
Forced                                   : No

Audio #3
ID                                       : 4
Format                                   : DTS
Format/Info                              : Digital Theater Systems
Mode                                     : 16
Format settings, Endianness              : Big
Codec ID                                 : A_DTS
Duration                                 : 1h 42mn
Bit rate mode                            : Constant
Bit rate                                 : 768 Kbps
Channel(s)                               : 6 channels
Channel positions                        : Front: L C R, Side: L R, LFE
Sampling rate                            : 48.0 KHz
Bit depth                                : 24 bits
Compression mode                         : Lossy
Stream size                              : 563 MiB (5%)
Title                                    : DTS 5.1 Catalan
Language                                 : Catalan
Default                                  : No
Forced                                   : No

Audio #4
ID                                       : 5
Format                                   : DTS
Format/Info                              : Digital Theater Systems
Format profile                           : ES
Mode                                     : 16
Format settings, Endianness              : Big
Codec ID                                 : A_DTS
Duration                                 : 1h 42mn
Bit rate mode                            : Constant
Bit rate                                 : 1 509 Kbps
Channel(s)                               : 6 channels
Channel positions                        : Front: L C R, Side: L R, LFE
Sampling rate                            : 48.0 KHz
Bit depth                                : 24 bits
Compression mode                         : Lossy
Stream size                              : 1.08 GiB (9%)
Title                                    : DTS 5.1 Ingles
Language                                 : English
Default                                  : No
Forced                                   : No

Text #1
ID                                       : 6
Format                                   : UTF-8
Codec ID                                 : S_TEXT/UTF8
Codec ID/Info                            : UTF-8 Plain Text
Title                                    : Subs Castellano [BDrip by left2]
Language                                 : Spanish
Default                                  : No
Forced                                   : No

Text #2
ID                                       : 7
Format                                   : UTF-8
Codec ID                                 : S_TEXT/UTF8
Codec ID/Info                            : UTF-8 Plain Text
Title                                    : Subs Ingles [BDrip by left2]
Language                                 : English
Default                                  : No
Forced                                   : No

Menu
00:00:00.000                             : en:00:00:00.000
00:04:48.205                             : en:00:04:48.205
00:09:49.589                             : en:00:09:49.589
00:13:05.535                             : en:00:13:05.535
00:16:50.051                             : en:00:16:50.051
00:20:36.193                             : en:00:20:36.193
00:24:09.490                             : en:00:24:09.490
00:28:17.237                             : en:00:28:17.237
00:31:31.848                             : en:00:31:31.848
00:34:06.586                             : en:00:34:06.586
00:38:21.591                             : en:00:38:21.591
00:43:17.428                             : en:00:43:17.428
00:44:58.029                             : en:00:44:58.029
00:47:04.739                             : en:00:47:04.739
00:49:07.945                             : en:00:49:07.945
00:52:40.699                             : en:00:52:40.699
00:56:28.885                             : en:00:56:28.885
00:59:52.214                             : en:00:59:52.214
01:03:27.387                             : en:01:03:27.387
01:07:48.940                             : en:01:07:48.940
01:14:36.472                             : en:01:14:36.472
01:18:24.950                             : en:01:18:24.950
01:20:13.100                             : en:01:20:13.100
01:24:03.038                             : en:01:24:03.038
01:25:19.281                             : en:01:25:19.281
01:27:34.040                             : en:01:27:34.040
01:32:05.520                             : en:01:32:05.520
01:34:12.480                             : en:01:34:12.480


PARTICION ORIGINAL

Total 77 Links
76×160 MB + 1x54MB
Unir con 7-zip
5 Archivo de recuperación par (Utilizar Smartpar)

DESCARGA
Password: left2

PorDescargaDirecta

Llegaron buscando:

  • descargar Canciones Lindas Los Betos 1987 taringa
  • lidocaine en espanol sirve para durarara mas haciendo el amor

Tags: , , , , , , , , ,

You can leave a comment, or trackback.

Deja un comentario

Tu dirección de correo electrónico no será publicada. Los campos necesarios están marcados *

Puedes usar las siguientes etiquetas y atributos HTML: <a href="" title=""> <abbr title=""> <acronym title=""> <b> <blockquote cite=""> <cite> <code> <del datetime=""> <em> <i> <q cite=""> <strike> <strong>


Featuring Advanced Search Functions plugin by YD